Spring naar bijdragen

Zuidplasser

Leden
  • Aantal bijdragen

    84
  • Geregistreerd

  • Laatst bezocht

Over Zuidplasser

  • Rang
    Sat4all Lid

Aanvullende info

  • Geslacht
    Mannelijk
  • Locatie:
    Zuidplas
  • Interesses
    Feedhunting

Recente profielbezoeken

486 profielweergaven
  1. 0,8 West 11527 V 10000 Titanic Slipways LNOP RESERVE HD420 FTA Morgen live vanuit Belfast, Glasgow & Swansea, en hopelijk ook de Hyde Park feed...
  2. Zuidplasser

    ANDERS NT Live

    23,5 Oost 12675 H 14500 NT LIVE HD420 FTA National Theatre Live "The Lehman T rilogy"
  3. 3 West 11069 V 19998 BBC 2 MAIN GLASTONBURY HD422 FTA Glastonbury 2019 dag 2 met vanavond Janet Jackson en The Killers
  4. 11093 V 19998 BBC 4 MAIN GLASTONBURY HD422 FTA en de backup feed voor de programma's op BBC4.
  5. Zuidplasser

    ANDERS Glastonbury 2019

    3 West 11069 V 19998 BBC 2 MAIN GLASTONBURY HD422 FTA Glastonbury 2019 bij de BBC. weinig Glastonbury feeds dit jaar, dit is de backup feed voor de programma's die op BBC2 worden uitgezonden dit weekend.
  6. 12736 V 7200 SNG HH Encoder 1 HD422 FTA The Cure & Foo Fighters sluiten af vandaag.
  7. 23,5 Oost 12680 V 7200 SD422 FTA Freak Valley Festival 2019 Dag 3
  8. 12727 V 7200 SNG HH Encoder 1 HD422 FTA Hurricane Festival vanuit Scheeßel met vanavond o.a. Mumford & Sons
  9. 8 West 12508 V 7120 NLUSS HOL219-1 (UNITED) HD420 Biss encrypted 8 West 12576 V 7120 RED BEE MEDIA NL (RED BEE MEDIA) HD420 Biss encrypted NOS feed voor de Elfstedenzwemtocht met Maarten van der Weijden
  10. 12719 V 7200 SNG HH Encoder 1 HD422 FTA Hurricane Festival vanuit Scheeßel 16:00 Betontod 16:45 Alice Merton 17:30 Enter Shikari 18:30 Cigarettes After Sex 19:30 Papa Roach 20:30 Bosse 21:30 Parkway Drive 22:45 Die Toten Hosen 00:45 Bilderbuch
  11. 23,5 Oost 12680 V 7200 SD422 FTA Freak Valley Festival 2019 met een optreden van DeWollf
  12. 23,5 Oost 12685 H 33300 16APSK "empty ID" (UHD422) Biss Encrypted Isle Of Wight Festival 2019 in UltraHD, uitzending voor SKY Arts. Vandaag met o.a. Rick Astley, George Ezra & Fatboy Slim Stream #0:0[0x200]: Video: hevc (Rext) ([36][0][0][0] / 0x0024), yuv422p10le(tv, bt2020nc/bt2020/bt2020-10), 3840x2160 [SAR 1:1 DAR 16:9], 50 fps, 50 tbr, 90k tbn, 50 tbc Stream #0:1[0x1010]: Audio: mp2 ([3][0][0][0] / 0x0003), 48000 Hz, stereo, s16p, 384 kb/s Stream #0:2[0x1011]: Audio: mp2 ([3][0][0][0] / 0x0003), 48000 Hz, stereo, s16p, 128 kb/s Stream #0:3[0x1012]: Audio: s302m (BSSD / 0x44535342), 48000 Hz, stereo, s32 (24 bit), 2689 kb/s Stream #0:4[0x1013]: Audio: mp2 ([3][0][0][0] / 0x0003), 48000 Hz, stereo, s16p, 128 kb/s Stream #0:5[0x1014]: Audio: s302m (BSSD / 0x44535342), 48000 Hz, stereo, s32 (24 bit), 2689 kb/s Stream #0:6[0x1015]: Audio: s302m (BSSD / 0x44535342), 48000 Hz, stereo, s32 (24 bit), 2689 kb/s
  13. 0,8 West 11492 V 3752 NLUSS HOL312-1 (UNITED) HD420 Biss encrypted Live vanaf Vliegbasis Volkel, de luchtmachtdagen 2019
  14. eindelijk een F1 feed in 4K 10 Oost 11182 H 19200 4K_FEED_A_ea HEVC422 Biss Encrypted
×
×
  • Nieuwe aanmaken...

Belangrijke informatie

Onze Gebruiksvoorwaarden en Privacybeleid